Torrent Details

Photo Not Available
Baywatch 2017 SECOND VHS EDITION 480p WEB-DL x264-TRACKEDiP
Size1.2 GB in 2 files
ReleasesAdded on 02.03.2018 at 9:47 into the Ebooks category by Unknown.
Status0 seeds & 0 peers.
Hashb5d1313d87cdab4e3cb43017c96ec2acf3112425
Rating
  • YourBT Visitors

Status This torrent has been verified.
*

Torrent Description

THIS IS NOT THE ACTUAL FILM, IT IS A REMIX CREATED BY THE P2P ECOSYSTEM.
REMOVED FROM YOUTUBE; THE ONLY WAY THIS CAN CIRCULATE, IS BY THE AUTONOMOUS NETWORK WHICH RESISTS THE COPYRIGHT REGIME.

For feedback or more information you can check the video process in here:
http://youtu.be/PqV1BscGccQ
You can also find other derivates not removed by copywrongs in the channel:
http://www.youtube.com/channel/UCxbgKdfKZtY8BTyDAEBV3_Q
===================================================================================

Baywatch.2017.SECOND.VHS.EDITION.480p.WEB-DL.x264-TRACKEDiP.mp4

Format : MPEG-4
Format profile : Base Media
File size : 1.20 GiB
Duration : 2 h 1 min
Overall bit rate : 1 416 kb/s

Video
ID : 1
Format : AVC
Format/Info : Advanced Video Codec
Format profile : [email protected]
Format settings, CABAC : Yes
Format settings, ReFrames : 1 frame
Codec ID : avc1
Codec ID/Info : Advanced Video Coding
Duration : 2 h 1 min
Bit rate : 1 285 kb/s
Width : 854 pixels
Height : 480 pixels
Display aspect ratio : 16:9
Frame rate mode : Constant
Frame rate : 25.000 FPS
Color space : YUV
Chroma subsampling : 4:2:0
Bit depth : 8 bits
Scan type : Progressive
Bits/(Pixel*Frame) : 0.125
Stream size : 1.09 GiB (91%)
Color range : Limited
Color primaries : BT.709
Transfer characteristics : BT.709
Matrix coefficients : BT.709

Audio
ID : 2
Format : AAC
Format/Info : Advanced Audio Codec
Format profile : LC
Codec ID : 40
Duration : 2 h 1 min
Bit rate mode : Constant
Bit rate : 126 kb/s
Channel(s) : 2 channels
Channel positions : Front: L R
Sampling rate : 44.1 kHz
Frame rate : 43.066 FPS (1024 spf)
Compression mode : Lossy
Stream size : 109 MiB (9%)
Default : Yes
Alternate group : 1

===================================================================================

The film was extracted via the online swarm, it was then recorded into a VHS tape.

The IP's present in the swarm were logged in a text file, which ended being printed into a binary text.

The tape from the VHS was extracted from the cartridge, and set under a ruler. Every centimeter was taken either as a "0" or
a "1" binary value. The order was read and assigned as the one from the binary code, for the IP addresses.

A pair of buzz magnets, sized one centimeter in diameter, were used to write the "0" values on the tape, by placing them on
top of the ruler. Big magnets erase magnetic tape, just like a zero value (about 66 IP addresses can remix 70 meters of tape).

The final capture from the VCR, is an audiovisual remix for the commercial film (protected as the holy good, that must not be
touched, or used elsewhere but the heavenly main market) and the exact internet addresses of those who broke the business
copyright rules, inside the autonomous web (the P2P swarm), both merged as one last piece of video.

The same process will be repeated using the video from the last Baywatch VHS edition, triggered by each time a new VHS edition
is rejected by the Content ID system, creating a loop between the centralized, and the decentralized networks.
===================================================================================

Let's find a neutral place where sharing will flourish, take everything from the past and your surroundings, and make
different configurations with it.



Similar Torrents

TORRENT NAMESIZESEEDSPEERS
1.2 GB00
3.6 GB00
2.2 GB00
2.3 GB00
3.7 GB00
1.5 GB173
1.4 GB148
1010 MB101
1.7 GB94
803 MB22
312 MB21
330 MB00
1.4 GB00
294 MB00

Torrent Trackers

Files inside this torrent

FILENAMESIZE
icon Baywatch.2017.SECOND.VHS.EDITION.480p.WEB-DL.x264-TRACKEDiP.mp41.2 GB
icon Info.txt5.2 KB